Search "young porn video" to find us. All models 18+


Зрелое МЖЖ



Зрелое МЖЖ
Год выпуска: 2014 г.
Жанр: Amateur, Threesome, All Sex, Homemade
Продолжительность: 00:15:15

Описание: Мужик трахает двух зрелых крупногабаритных дамочек.

Качество: CamRip
Формат: AVI

Видео: AVC, 480 x 384 (4:3), 30.000 fps, ~2838 kb/s
Аудио: AAC (LC), 2 Channels, 48.0 kHz, 87.2 kb/s
General
Complete name : Зрелое МЖЖ_(domaha.tv).mp4
Format : MPEG4
Format profile : Base Media
Codec ID : isom (isom/iso2/avc1/mp41)
File size : 320 MiB
Duration : 15 min 15 s
Overall bit rate mode : Variable
Overall bit rate : 2 931 kb/s
Encoded date : UTC 20150525 19:58:07
Tagged date : UTC 20150525 19:58:07
Writing application : Lavf52.93.0

Video
ID : 1
Format : AVC
Format/Info : Advanced Video Codec
Format profile : High@L5
Format settings, CABAC : Yes
Format settings, ReFrames : 3 frames
Codec ID : avc1
Codec ID/Info : Advanced Video Coding
Duration : 15 min 15 s
Bit rate : 2 838 kb/s
Nominal bit rate : 50.0 Mb/s
Width : 480 pixels
Height : 384 pixels
Display aspect ratio : 4:3
Frame rate mode : Constant
Frame rate : 30.000 FPS
Color space : YUV
Chroma subsampling : 4:2:0
Bit depth : 8 bits
Scan type : Progressive
Bits/(Pixel*Frame) : 0.513
Stream size : 310 MiB (97%)
Writing library : x264 core 112
Encoding settings : cabac=1 / ref=3 / deblock=1:0:0 / analyse=0x3:0x113 / me=hex / subme=7 / psy=1 / psy_rd=1.00:0.00 / mixed_ref=1 / me_range=16 / chroma_me=1 / trellis=1 / 8x8dct=1 / cqm=0 / deadzone=21,11 / fast_pskip=1 / chroma_qp_offset=2 / threads=1 / sliced_threads=0 / nr=0 / decimate=1 / interlaced=0 / constrained_intra=0 / bframes=3 / b_pyramid=0 / b_adapt=1 / b_bias=0 / direct=1 / weightb=1 / open_gop=0 / weightp=2 / keyint=250 / keyint_min=25 / scenecut=40 / intra_refresh=0 / rc_lookahead=40 / rc=abr / mbtree=1 / bitrate=50000 / ratetol=1.0 / qcomp=0.60 / qpmin=10 / qpmax=51 / qpstep=4 / ip_ratio=1.41 / aq=1:1.00
Encoded date : UTC 20150525 19:58:07
Tagged date : UTC 20150525 19:58:07

Audio
ID : 2
Format : AAC
Format/Info : Advanced Audio Codec
Format profile : LC
Codec ID : 40
Duration : 15 min 15 s
Bit rate mode : Variable
Bit rate : 87.2 kb/s
Channel(s) : 2 channels
Channel positions : Front: L R
Sampling rate : 48.0 kHz
Frame rate : 46.875 FPS (1024 spf)
Compression mode : Lossy
Stream size : 9.51 MiB (3%)
Encoded date : UTC 20150525 19:58:07
Tagged date : UTC 20150525 19:58:07


favorites Add To Favorites dowmload Download size Size: 320 MB add Add to Group views 313 flag Flag

Зрелое МЖЖ [2014 г., Amateur, Threesome, All Sex, Homemade, CamRip 384p]
Uploaded by lisa999 10-01-2017, 09:40

Tags: Amateur Anal DAP



  Slava Sanina x6

Slava Sanina x6

15-01-2017, 10:26 2.45 GB
  Alice Wonder x12

Alice Wonder x12

13-01-2017, 13:38 4.83 GB
  Emanuelle x6

Emanuelle x6

12-01-2017, 08:21 2.51 GB
  Gerda May (  Miranda) x8

Gerda May ( Miranda) x8

7-01-2017, 15:19 4.25 GB
  Gerda May (  Miranda) x8

Gerda May ( Miranda) x8

7-01-2017, 15:19 4.25 GB
  Vivi St Claire x4

Vivi St Claire x4

3-01-2017, 19:30 1.56 GB
  Alexandra Rey x4

Alexandra Rey x4

2-01-2017, 01:02 1.73 GB
 Aria   Aria x6 720p

Aria Aria x6 720p

25-12-2016, 23:51 2.61 GB
 Grazy Almeida And Spencer Fox

Grazy Almeida And Spencer Fox

25-12-2016, 23:51 1.26 GB
Jillian Janson 2

Jillian Janson 2

20-12-2016, 13:06 1.59 GB
Arrow Up